<?xml version="1.0" standalone="no"?>
<!DOCTYPE svg PUBLIC "-//W3C//DTD SVG 1.1//EN" "http://www.w3.org/Graphics/SVG/1.1/DTD/svg11.dtd" >
<svg xmlns="http://www.w3.org/2000/svg">
<metadata>
<json>
<![CDATA[
{
	"fontFamily": "h5p",
	"description": "Font generated by IcoMoon.",
	"majorVersion": 1,
	"minorVersion": 1,
	"version": "Version 1.1",
	"fontId": "h5p",
	"psName": "h5p",
	"subFamily": "Regular",
	"fullName": "h5p"
}
]]>
</json>
</metadata>
<defs>
<font id="h5p" horiz-adv-x="1024">
<font-face units-per-em="1024" ascent="960" descent="-64" />
<missing-glyph horiz-adv-x="1024" />
<glyph unicode="&#x20;" horiz-adv-x="512" d="" />
<glyph unicode="&#xe600;" glyph-name="cross" d="M747.465 584.184l-99.28 99.28-136.184-136.184-136.184 136.184-99.28-99.28 136.184-136.184-136.184-136.184 99.28-99.28 136.184 136.184 136.184-136.184 99.28 99.28-136.184 136.184z" />
<glyph unicode="&#xe601;" glyph-name="check" d="M444.374 411.183l-137.031 137.031-99.366-99.28 236.395-236.395 371.649 371.649-99.366 99.28z" />
<glyph unicode="&#xe602;" glyph-name="drag-the-words" data-tags="drag-the-words" d="M688.323 405.158c-13.149 18.098-31.391 28.14-54.579 28.14-24.605 0-43.267-14.848-55.853-27.573h-2.119c1.414 12.725-0.285 27.573-0.285 35.632v58.964h-57.974v-270.069h47.652l9.050 22.624h3.675c13.149-22.624 31.249-25.31 54.437-25.31 23.33 0 41.853 8.908 55.428 26.724s20.363 43.411 20.363 75.931c0 31.532-6.645 56.7-19.795 74.941zM643.501 286.24c-6.503-10.181-15.413-15.27-26.443-15.27-13.573 0-24.605 4.525-30.823 13.715s-10.605 24.32-10.605 45.387v5.797c0 18.805 4.525 32.238 10.746 40.438 6.080 8.199 16.544 12.303 29.834 12.303 11.453 0 20.502-4.809 27.149-14.563s9.899-24.178 9.899-43.551c0-19.372-3.252-34.077-9.757-44.257zM837.216 270.969c10.322 0 19.937 1.414 28.704 4.1s15.129 7.069 26.443 12.867v-45.955c-11.312-5.515-17.534-9.333-26.3-11.453-8.908-2.119-20.078-3.11-33.513-3.11-61.225 0-91.908 33.653-91.908 100.959 0 33.513 8.343 58.964 25.027 76.639s40.581 26.443 71.69 26.443c22.764 0 43.126-4.525 61.225-13.434l-15.838-41.572c-8.484 3.394-16.26 6.222-23.614 8.343-7.21 2.119-14.563 3.252-21.775 3.252-27.997 0-41.853-19.795-41.853-59.529-0.285-38.318 13.715-57.549 41.712-57.549zM432.394 416.045c-14.141 11.453-29.553 17.251-55.853 17.251-27.573 0-52.74-5.939-75.365-17.815l17.534-36.197c21.21 9.473 38.462 14.279 54.156 14.279 20.502 0 28.704-10.038 28.704-29.977v-8.624l-32.238-1.131c-29.411-0.99-49.914-6.645-64.62-16.544-14.563-9.899-21.775-25.452-21.775-46.378 0-19.937 5.515-35.632 16.402-46.521 10.889-10.746 25.734-16.827 44.681-16.827 15.413 0 27.856 0.99 37.471 5.515 9.614 4.384 18.948 9.899 27.997 21.21h1.414l10.464-22.624h27.007v131.924c0 23.471-1.839 41.007-15.978 52.46zM401.71 307.45c0-11.877-1.839-21.351-9.333-28.563s-15.838-10.746-28.278-10.746c-17.392 0-25.875 7.635-25.875 22.764 0 10.605 3.958 18.382 11.595 23.614s17.392 7.918 32.946 8.484l18.948 0.565v-16.118zM965.181 544.433c9.333 0 16.967-7.635 16.967-16.967v-336.244c0-9.333-7.635-16.967-16.967-16.967h-718.586c-9.333 0-16.967 7.635-16.967 16.967v336.244c0 9.333 7.635 16.967 16.967 16.967h718.586zM965.181 586.853h-718.586c-32.804 0-59.387-26.582-59.387-59.387v-336.244c0-32.804 26.582-59.387 59.387-59.387h718.586c32.804 0 59.387 26.582 59.387 59.387v336.244c0 32.804-26.582 59.387-59.387 59.387v0zM210.822 286.806h-75.647v37.895h75.647v-37.895zM74.513 286.806h-41.147c-18.805 0-34.077 15.27-34.077 34.077v10.889h37.895v-7.069h37.329v-37.895zM37.326 407.419h-37.895v75.647h37.895v-75.647zM37.326 558.715h-37.895v75.647h37.895v-75.647zM799.322 571.3h-37.895v75.647h37.895v-75.647zM37.326 710.151h-37.895v19.937c0 18.805 15.27 34.077 34.077 34.077h31.955v-37.895h-28.14v-16.118zM761.145 726.272h-28.14v37.895h31.955c18.805 0 34.077-15.27 34.077-34.077v-19.937h-37.895v16.118zM671.073 726.272h-75.647v37.895h75.647v-37.895zM519.635 726.272h-75.647v37.895h75.647v-37.895zM368.197 726.272h-75.647v37.895h75.647v-37.895zM216.902 726.272h-75.647v37.895h75.647v-37.895z" />
<glyph unicode="&#xe603;" glyph-name="click-the-word" data-tags="click-the-word" d="M533.417 482.69c-16.59 0-27.3-5.13-34.839-15.231s-10.559-26.997-10.559-50.375v-7.241c0-26.395 2.564-45.248 10.407-56.56 7.844-11.462 19.607-17.043 36.5-17.043 13.725 0 24.282 6.335 32.428 19.003s12.066 31.069 12.066 55.201c0 24.132-4.222 42.23-12.368 54.297-8.294 11.916-19.457 17.949-33.634 17.949zM664.484 696.861h-283.55c-48.413 0-89.289-40.119-89.289-88.532v-306.627c0-48.413 40.873-102.561 89.289-102.561h283.55c48.413 0 87.328 39.517 87.328 87.93v321.257c0 48.413-38.913 88.532-87.328 88.532zM622.101 315.275c-16.894-22.172-39.818-32.428-68.928-32.428-28.807 0-51.431 3.62-67.722 32.276h-4.676l-11.162-28.657h-54.146v336.49h72.396v-74.657c0-10.105-3.469-26.395-5.13-41.475h2.564c15.686 15.084 38.761 32.878 69.53 32.878 28.959 0 51.581-13.123 68.022-35.594 16.441-22.624 24.583-54.447 24.583-93.812 0-40.572-8.446-72.698-25.339-95.021zM923.297 339.257c12.669 0 23.981 1.658 34.839 5.13 10.86 3.317 18.401 8.746 31.975 15.838v-56.56c-13.573-6.788-20.965-11.462-31.823-14.026s-24.434-3.92-41.026-3.92c-75.413 0-112.969 41.326-112.969 124.128 0 41.175 10.255 72.547 30.77 94.266s49.922 32.579 88.234 32.579c28.053 0 53.090-5.429 75.413-16.441l-19.457-51.131c-10.407 4.222-20.059 7.691-29.109 10.255-8.899 2.715-17.949 4.074-26.847 4.074-34.387 0-51.581-24.434-51.581-73.15 0.15-47.361 17.193-71.037 51.581-71.037zM208.089 533.066c-17.344 14.179-35.897 21.266-68.323 21.266-33.935 0-64.553-7.241-92.455-21.869l21.721-44.643c26.093 11.763 47.361 17.495 66.665 17.495 25.188 0 35.443-12.217 35.443-36.802v-10.559l-39.666-1.359c-36.197-1.359-61.386-8.144-79.485-20.363-17.949-12.217-26.695-31.372-26.695-57.010 0-24.583 6.788-43.89 20.211-57.163 13.274-13.274 31.674-20.663 54.901-20.663 18.853 0 34.238 1.658 46.001 7.088s23.227 12.97 34.387 26.544h1.809l12.819-27.149h31.523v160.628c0 28.959-1.508 50.375-18.853 64.553zM171.137 399.434c0-14.629-2.26-26.245-11.312-35.142-9.199-8.746-19.457-13.274-34.839-13.274-21.417 0-31.823 9.351-31.823 27.903 0 12.97 4.827 22.624 14.179 28.959s21.417 9.804 40.572 10.407l23.227 1.056v-19.909z" />
<glyph unicode="&#xe604;" glyph-name="anchor" data-tags="anchor" d="M835.545 489.011l-121.518-160.782h62.448c0 0-27.030-179.657-207.852-210.064 0 251.309 0 370.73 0 370.73h158.918v54.061h-158.918v80.974c49.749 21.67 84.468 71.186 84.468 128.626 0 77.362-62.914 140.276-140.276 140.276s-140.276-62.914-140.276-140.276c0-56.973 34.020-106.022 82.837-127.926v-81.671h-158.918v-54.061h158.918c0 0 0-119.537 0-370.73-180.821 30.409-207.852 210.064-207.852 210.064h62.565l-121.518 160.782-111.732-164.161h58.604c71.652-312.010 324.826-322.729 376.556-321.679 51.73-1.165 304.902 9.437 376.556 321.679h58.604l-111.615 164.161zM512.816 825.254c40.079 0 72.702-32.622 72.702-72.702s-32.622-72.702-72.702-72.702-72.702 32.622-72.702 72.702 32.622 72.702 72.702 72.702z" />
<glyph unicode="&#xe605;" glyph-name="single-choice" data-tags="single-choice" d="M276.231 741.062l-129.105-129.105c-2.639-2.639-6.469-4.225-10.166-4.225s-7.525 1.451-10.166 4.225l-74.717 74.717c-2.639 2.772-4.225 6.469-4.225 10.166s1.451 7.525 4.225 10.166l20.461 20.461c2.639 2.639 6.469 4.225 10.166 4.225s7.525-1.451 10.166-4.225l44.093-44.223 98.478 98.612c2.639 2.639 6.469 4.225 10.166 4.225s7.525-1.451 10.166-4.225l20.461-20.461c2.639-2.639 4.225-6.469 4.225-10.166s-1.585-7.392-4.225-10.166zM240.85 386.35l-21.516-21.516c-2.905-2.905-6.865-4.49-10.693-4.49-3.961 0-7.921 1.585-10.693 4.49l-46.468 46.468-46.6-46.468c-2.905-2.905-6.865-4.49-10.693-4.49-3.961 0-7.921 1.585-10.693 4.49l-21.65 21.516c-2.905 2.905-4.49 6.865-4.49 10.693 0 3.961 1.585 7.921 4.49 10.693l46.468 46.468-46.468 46.6c-2.905 2.905-4.49 6.865-4.49 10.693 0 3.961 1.585 7.921 4.49 10.693l21.516 21.516c2.905 2.905 6.865 4.49 10.693 4.49 3.961 0 7.921-1.585 10.693-4.49l46.468-46.468 46.468 46.468c2.905 2.905 6.865 4.49 10.693 4.49 3.961 0 7.921-1.585 10.693-4.49l21.516-21.516c2.905-2.905 4.49-6.865 4.49-10.693 0-3.961-1.585-7.921-4.49-10.693l-46.468-46.468 46.468-46.468c2.905-2.905 4.49-6.865 4.49-10.693 0.265-3.961-1.319-7.921-4.225-10.827zM240.85 143.716l-21.516-21.516c-2.905-2.905-6.865-4.49-10.693-4.49-3.961 0-7.921 1.585-10.693 4.49l-46.468 46.468-46.468-46.468c-2.905-2.905-6.865-4.49-10.693-4.49-3.961 0-7.921 1.585-10.693 4.49l-21.783 21.516c-2.905 2.905-4.49 6.865-4.49 10.693 0 3.961 1.585 7.921 4.49 10.693l46.468 46.468-46.468 46.732c-2.905 2.905-4.49 6.865-4.49 10.693 0 3.961 1.585 7.921 4.49 10.693l21.516 21.516c2.905 2.905 6.865 4.49 10.693 4.49 3.961 0 7.921-1.585 10.693-4.49l46.468-46.468 46.468 46.468c2.905 2.905 6.865 4.49 10.693 4.49 3.961 0 7.921-1.585 10.693-4.49l21.516-21.516c2.905-2.905 4.49-6.865 4.49-10.693 0-3.961-1.585-7.921-4.49-10.693l-46.468-46.468 46.468-46.468c2.905-2.905 4.49-6.865 4.49-10.693 0.265-4.092-1.319-8.053-4.225-10.956zM964.794 660.536c0-20.461-16.502-36.963-36.963-36.963h-587.444c-20.461 0-36.963 16.502-36.963 36.963v26.402c0 20.461 16.502 36.963 36.963 36.963h587.444c20.461 0 36.963-16.502 36.963-36.963v-26.402zM964.794 432.159c0-20.461-16.502-36.963-36.963-36.963h-587.444c-20.461 0-36.963 16.502-36.963 36.963v26.402c0 20.461 16.502 36.963 36.963 36.963h587.444c20.461 0 36.963-16.502 36.963-36.963v-26.402zM964.794 203.782c0-20.461-16.502-36.963-36.963-36.963h-587.444c-20.461 0-36.963 16.502-36.963 36.963v26.402c0 20.461 16.502 36.963 36.963 36.963h587.444c20.461 0 36.963-16.502 36.963-36.963v-26.402z" />
<glyph unicode="&#xe606;" glyph-name="left" d="M260.591 688.596h502.944v-94.573h-502.944v94.573zM260.591 495.225h502.944v-94.573h-502.944v94.573zM260.591 301.977h502.944v-94.573h-502.944v94.573zM181.426 279.358l-175.974 168.021 175.974 168.144z" />
<glyph unicode="&#xe607;" glyph-name="right" d="M260.591 688.596h502.944v-94.573h-502.944v94.573zM260.591 495.225h502.944v-94.573h-502.944v94.573zM260.591 301.977h502.944v-94.573h-502.944v94.573zM841.331 615.523l175.974-168.144-175.974-168.021z" />
<glyph unicode="&#xe608;" glyph-name="bring-to-front" d="M661.753 663.448v102.41h-467.608v-467.608h102.41v-168.106h533.304v533.304h-168.106zM764.156 195.844h-401.91v102.41h299.499v299.499h102.41v-401.91z" />
<glyph unicode="&#xe609;" glyph-name="finger" d="M198.353 431.723c18.951 10.812 39.879 13.371 61.273 12.093 24.997-1.396 48.599-7.789 70.226-20.696 0.582-0.349 1.162-0.582 3.604-1.745-0.349 8.023-0.929 14.766-0.929 21.625 0 104.64 0.349 233.695-0.115 338.334-0.233 39.066 35.461 70.689 76.386 63.597 33.951-5.813 55.11-31.973 54.646-66.272-0.349-27.787 0-80.107-0.115-107.894 0-9.185-0.115-18.487-0.233-28.602 35.577 24.648 88.943 11.394 102.663-36.391 19.299 13.836 40.461 17.672 62.784 9.998 22.671-7.789 36.391-24.183 41.972-48.135 1.745 1.048 3.139 1.86 4.419 2.79 30.694 19.997 73.014 10.58 91.966-20.461 5.697-9.302 8.487-19.532 8.603-30.345 0.115-68.712 0.466-137.543 0-206.257-0.233-53.367-12.323-103.71-39.764-149.984-16.277-27.555-36.971-51.157-63.83-68.946-26.044-17.208-54.646-26.974-86.153-26.857-24.648 0-49.413-0.697-73.946 0.697-36.042 1.977-67.085 17.091-94.176 40.461-31.276 27.090-52.436 61.039-66.737 99.524-1.511 4.186-3.837 8.255-6.744 11.626-17.323 20.461-34.531 41.158-52.668 61.039-24.997 27.439-55.227 47.902-88.595 63.83-17.208 8.255-27.904 21.974-30.23 41.042-2.558 21.161 8.023 35.809 25.695 45.925z" />
<glyph unicode="&#xe60b;" glyph-name="radio-unselected" data-tags="radio-unselected" d="M512 904c-251.844 0-456-204.156-456-456s204.156-456 456-456 456 204.156 456 456-204.156 456-456 456zM512 106c-188.88 0-342 153.12-342 342s153.12 342 342 342c188.88 0 342-153.12 342-342s-153.12-342-342-342z" />
<glyph unicode="&#xe60c;" glyph-name="checkbox-selected" data-tags="checkbox-selected" d="M56 904v-912h912v912h-912zM911 49h-798v798h798v-798zM740 704.5l-285-285-171 171-114-114 285-285 399 399-114 114z" />
<glyph unicode="&#xe60d;" glyph-name="radio-selected" data-tags="radio-selected" d="M512 904c-251.844 0-456-204.156-456-456s204.156-456 456-456 456 204.156 456 456-204.156 456-456 456zM512 106c-188.88 0-342 153.12-342 342s153.12 342 342 342c188.88 0 342-153.12 342-342s-153.12-342-342-342zM341 448c0 94.44 76.56 171 171 171s171-76.56 171-171c0-94.44-76.56-171-171-171s-171 76.56-171 171z" />
<glyph unicode="&#xe900;" glyph-name="dialog-cards" data-tags="uniE606" d="M908.894 793.33l-420.517 152.81c-29.612 10.738-62.28-4.749-73.018-34.362l-20.712-57.221h195.143c52.306 0 95.568-42.044 95.568-94.35v-750.505c0 0.62 0.31 1.384 0.454 2.003l257.279 708.627c10.738 29.612-4.605 62.28-34.217 73.018zM639.328 757.751c0 31.45-25.461 56.911-56.911 56.911h-447.672c-31.45 0-56.911-25.461-56.911-56.911v-754.511c0-31.45 25.461-56.911 56.911-56.911h447.672c31.45 0 56.911 25.461 56.911 56.911v754.511zM240.596 302.108c-4.915-1.218-10.118-2.912-15.653-2.912-0.144 0-0.31 0-0.62 0-2.767 0-5.225 2.148-5.823 5.225-0.764 3.366 1.693 5.679 3.676 7.971 7.062 7.971 15.033 15.033 21.332 30.066-29.447 17.036-48.321 43.427-48.321 72.874 0 51.398 57.221 92.966 127.803 92.966s127.803-41.568 127.803-92.966c0-51.398-57.221-92.966-127.803-92.966-11.048 0-21.786 1.074-31.904 2.912-15.033-10.738-32.214-18.42-50.469-23.169zM493.58 265.887c2.003-2.292 4.295-4.605 3.676-7.971-0.764-3.221-3.366-5.679-6.298-5.225-5.513 0.764-10.738 1.693-15.653 2.912-18.42 4.749-35.435 12.576-50.469 23.314-10.118-1.838-20.856-2.912-31.904-2.912-32.834 0-63.044 9.045-85.76 23.933 5.225-0.31 10.738-0.764 15.963-0.764 39.111 0 75.951 11.192 104.014 31.594 30.376 22.096 47.103 52.162 47.103 84.686 0 9.52-1.384 18.709-4.151 27.609 30.686-16.871 50.634-43.716 50.634-74.092 0-29.612-18.874-55.693-48.321-72.874 6.133-15.199 14.125-22.24 21.166-30.232z" />
<glyph unicode="&#xe901;" glyph-name="questionnaire" data-tags="out" horiz-adv-x="1205" d="M1071.316 790.728l-54.122 54.137c-7.17 7.166-17.125 11.144-27.069 11.144-9.949 0-19.91-3.975-27.057-11.144l-261.102-261.501-117.018 117.412c-7.166 7.166-17.114 11.145-27.063 11.145s-19.904-3.987-27.063-11.145l-54.133-54.127c-7.166-7.166-11.144-17.114-11.144-27.063s3.981-19.91 11.144-27.063l198.212-198.212c7.16-7.17 17.111-11.144 27.063-11.144s19.91 3.964 27.063 11.144l342.287 342.292c7.166 7.166 11.144 17.111 11.144 27.057 0 9.955-3.969 19.904-11.144 27.063zM694.166 283.295v-128.764h-457.243v457.255h118.058c-4.259 15.523-6.658 31.585-6.658 47.813 0 22.932 4.565 45.592 12.929 66.727h-238.857v-686.317h686.306v259.257c-24.965-12.399-52.652-19.253-80.795-19.253-11.363 0-22.649 1.175-33.737 3.29z" />
<glyph unicode="&#xe902;" glyph-name="true-false" data-tags="editor-icon" horiz-adv-x="1032" d="M391.659 632.926l-206.86-206.86c-4.179-4.179-10.444-6.271-16.718-6.271s-12.538 2.092-16.718 6.271l-33.435 33.435-83.58 87.764c-4.179 4.179-6.271 10.444-6.271 16.718s2.092 12.538 6.271 16.718l33.435 33.435c4.179 4.179 10.444 6.271 16.718 6.271s12.538-2.092 16.718-6.271l71.049-71.049 156.721 156.721c4.179 4.179 10.444 6.271 16.718 6.271s12.538-2.092 16.718-6.271l33.435-33.435c4.179-4.179 6.271-10.444 6.271-16.718-4.179-6.271-6.271-12.538-10.444-16.718zM993.442 223.372l-29.256-29.256c-4.179-4.179-8.359-6.271-14.623-6.271s-10.444 2.092-14.623 6.271l-62.686 62.686-62.686-62.686c-4.179-4.179-8.359-6.271-14.623-6.271s-10.444 2.092-14.623 6.271l-29.256 29.256c-4.179 4.179-6.271 8.359-6.271 14.623s2.092 10.444 6.271 14.623l62.686 62.686-62.686 62.686c-4.179 4.179-6.271 8.359-6.271 14.623s2.092 10.444 6.271 14.623l29.256 29.256c4.179 4.179 8.359 6.271 14.623 6.271s10.444-2.092 14.623-6.271l62.686-62.686 62.686 62.686c4.179 4.179 8.359 6.271 14.623 6.271s10.444-2.092 14.623-6.271l29.256-29.256c4.179-4.179 6.271-8.359 6.271-14.623s-2.092-10.444-6.271-14.623l-62.686-62.686 62.686-62.686c4.179-4.179 6.271-8.359 6.271-14.623s-2.092-10.444-6.271-14.623zM742.697 697.704l-442.98-442.98c-10.444-10.444-10.444-29.256 0-39.695v0c10.444-10.444 29.256-10.444 39.695 0l442.98 442.98c10.444 10.444 10.444 29.256 0 39.695v0c-12.538 10.444-29.256 10.444-39.695 0z" />
<glyph unicode="&#xe903;" glyph-name="iv-hotspot" data-tags="iv-hotspot" horiz-adv-x="892" d="M821.826 266.663c-10.794 7.244-32.088-1.178-42.545-2.176-13.745 11.785-25.518 30.043-38.014 30.534-15.501 0.612-31.57-13.47-38.476-16.846-15.818 10.966-32.681 31.702-45.569 29.478-18.258-3.173-33.586-23.27-45.579-32.577 0 34.509-0.244 79.439 0.091 124.367 0.208 27.783-6.017 51.514-39.471 51.552-33.388 0.047-39.625-23.26-39.464-51.335 0.461-76.094 0.16-152.197 0.16-228.3-2.393-1.178-4.798-2.346-7.194-3.524-9.6 12.587-19.115 25.238-28.819 37.75-16.79 21.649-37.948 30.581-61.246 12.755-22.074-16.902-18.729-38.682-3.203-59.39 34.396-45.937 67.991-92.496 103.848-137.269 8.216-10.25 24.052-19.872 36.666-20.236 67.342-1.978 134.79-2.007 202.119 0.188 10.411 0.348 27.367 14.324 29.342 24.307 12.54 64.496 23.025 129.48 31.135 194.693 1.885 15.252-3.259 39.003-13.764 46.041zM325.814 196.659c-146.347 41.189-253.963 175.769-253.963 335.097 0 191.973 156.172 348.145 348.145 348.145 191.963 0 348.145-156.172 348.145-348.145 0-54.142-12.427-105.44-34.575-151.17 5.832-0.396 11.39-1.216 16.59-2.506 21.833 46.728 34.114 98.789 34.114 153.674 0 200.857-163.417 364.274-364.274 364.274s-364.274-163.408-364.274-364.274c0-168.748 115.37-311.045 271.373-352.226-0.806 5.737-1.31 11.453-1.281 17.128zM438.785 313.421c0 9.449-0.035 18.919-0.038 28.376-6.171-0.612-12.419-0.933-18.751-0.933-105.272 0-190.896 85.637-190.896 190.896s85.637 190.896 190.896 190.896c105.272 0 190.899-85.637 190.899-190.896 0-1.884-0.095-3.733-0.147-5.587 14.479-6.535 25.38-15.055 33.097-22.856 10.906-10.985 18.38-23.129 23.552-35.131 5.228 20.331 8.017 41.641 8.017 63.567 0 140.835-114.579 255.414-255.423 255.414-140.835 0-255.414-114.579-255.414-255.414 0-122.475 86.654-225.049 201.866-249.735 2.164 1.884 4.277 3.789 6.595 5.558 19.992 15.318 42.553 24.173 65.731 25.842z" />
<glyph unicode="&#xe904;" glyph-name="checkbox-unselected" data-tags="checkbox-unselected" d="M56 904v-912h912v912h-912zM911 49h-798v798h798v-798z" />
<glyph unicode="&#xe980;" glyph-name="video" data-tags="video" d="M0 832v-768h1024v768h-1024zM192 128h-128v128h128v-128zM192 384h-128v128h128v-128zM192 640h-128v128h128v-128zM768 128h-512v640h512v-640zM960 128h-128v128h128v-128zM960 384h-128v128h128v-128zM960 640h-128v128h128v-128zM384 640v-384l256 192z" />
<glyph unicode="&#xe987;" glyph-name="previous-page" data-tags="previous-page" horiz-adv-x="912" d="M253.25 528.109c0 24.74 14.469 59.266 31.736 76.531l190.405 190.405c17.269 17.269 51.805 31.736 76.531 31.736h253.873c24.74 0 44.803-20.065 44.803-44.803v-627.215c0-24.74-20.065-44.803-44.803-44.803h-507.742c-24.74 0-44.803 20.065-44.803 44.803v373.335zM790.865 169.702v597.342h-238.937v-194.135c0-24.74-20.065-44.803-44.803-44.803h-194.135v-358.409h477.877zM492.19 587.854v139.535l-139.535-139.535h139.535zM192.677 323.293c0-11.333-9.4-20.723-20.723-20.723-5.499 0-10.687 2.261-14.568 6.153l-145.091 145.091c-3.884 3.884-6.153 9.062-6.153 14.568s2.261 10.684 6.153 14.567l145.091 145.091c3.884 3.885 9.061 6.156 14.568 6.156 11.333 0 20.723-9.4 20.723-20.723v-290.168z" />
<glyph unicode="&#xe988;" glyph-name="next-page" data-tags="next-page" horiz-adv-x="928" d="M73.297 538.465c0 24.74 14.469 59.266 31.736 76.531l190.405 190.405c17.269 17.269 51.805 31.736 76.531 31.736h253.873c24.74 0 44.803-20.065 44.803-44.803v-627.215c0-24.74-20.065-44.803-44.803-44.803h-507.742c-24.74 0-44.803 20.065-44.803 44.803v373.335zM610.91 180.057v597.342h-238.937v-194.135c0-24.74-20.065-44.803-44.803-44.803h-194.135v-358.409h477.877zM312.236 598.203v139.535l-139.535-139.535h139.535zM737.717 623.817c0 11.333 9.4 20.723 20.723 20.723 5.499 0 10.687-2.261 14.568-6.153l145.091-145.091c3.884-3.884 6.153-9.062 6.153-14.568s-2.261-10.684-6.153-14.567l-145.091-145.091c-3.884-3.885-9.061-6.156-14.568-6.156-11.333 0-20.723 9.4-20.723 20.723v290.168z" />
<glyph unicode="&#xe989;" glyph-name="delete-page" data-tags="delete-page" horiz-adv-x="1296" d="M963.307 598.319c-80.822-80.822-211.979-80.822-292.809 0-80.822 80.822-80.822 211.979 0 292.809 80.822 80.822 211.979 80.822 292.809 0 80.822-80.822 80.822-211.979 0-292.809zM890.104 842.324c-6.668 6.668-17.734 6.668-24.402 0l-48.797-48.797-48.797 48.797c-6.668 6.668-17.734 6.668-24.402 0l-24.402-24.402c-6.668-6.668-6.668-17.734 0-24.402l48.797-48.797-48.797-48.797c-6.668-6.668-6.668-17.734 0-24.402l24.402-24.402c6.668-6.668 17.734-6.668 24.402 0l48.797 48.797 48.797-48.797c6.668-6.668 17.734-6.668 24.402 0l24.402 24.402c6.668 6.668 6.668 17.734 0 24.402l-48.797 48.797 48.797 48.797c6.668 6.668 6.668 17.734 0 24.402l-24.402 24.402zM785.508 601.976v-523.551h-509.205v381.906h206.861c26.362 0 47.74 21.38 47.74 47.74v206.861h158.024v63.647h-158.024c-26.362 0-63.151-15.418-81.548-33.817l-202.887-202.887c-18.402-18.401-33.817-55.201-33.817-81.548v-397.812c0-26.362 21.38-47.74 47.74-47.74h541.028c26.362 0 47.74 21.38 47.74 47.74v539.467h-63.647zM467.25 672.664v-148.682h-148.682l148.682 148.682z" />
<glyph unicode="&#xe990;" glyph-name="add-page" data-tags="add-pafe" horiz-adv-x="928" d="M713.8 539.066c-114.303 0-207.048 92.735-207.048 207.048s92.735 207.045 207.048 207.045 207.048-92.735 207.048-207.048-92.735-207.045-207.048-207.045zM834.573 763.37c0 9.432-7.815 17.252-17.252 17.252h-69.017v69.017c0 9.432-7.815 17.252-17.252 17.252h-34.501c-9.432 0-17.252-7.815-17.252-17.252v-69.017h-69.017c-9.432 0-17.252-7.815-17.252-17.252v-34.505c0-9.432 7.815-17.252 17.252-17.252h69.017v-69.017c0-9.432 7.815-17.252 17.252-17.252h34.501c9.432 0 17.252 7.815 17.252 17.252v69.017h69.017c9.432 0 17.252 7.815 17.252 17.252v34.505zM682.399 603.369v-523.551h-509.205v381.906h206.861c26.362 0 47.74 21.38 47.74 47.74v206.861h158.024v63.647h-158.024c-26.362 0-63.151-15.418-81.548-33.817l-202.887-202.887c-18.402-18.401-33.817-55.201-33.817-81.548v-397.812c0-26.362 21.38-47.74 47.74-47.74h541.028c26.362 0 47.74 21.38 47.74 47.74v539.467h-63.647zM364.138 674.053v-148.682h-148.682l148.682 148.682z" />
<glyph unicode="&#xe991;" glyph-name="clone-page" data-tags="clone-page" horiz-adv-x="896" d="M578.975 307.419h-475.614c-54.269 0-98.41 44.143-98.41 98.41v351.314c0 54.269 44.143 98.41 98.41 98.41h475.614c54.269 0 98.41-44.143 98.41-98.41v-351.314c0-54.269-44.143-98.41-98.41-98.41zM103.355 796.85c-21.893 0-39.713-17.809-39.713-39.713v-351.314c0-21.893 17.817-39.713 39.713-39.713h475.614c21.893 0 39.713 17.809 39.713 39.713v351.314c0 21.893-17.809 39.713-39.713 39.713h-475.614zM719.786 71.753h-86.976v58.698h86.976v-58.698zM545.833 71.753h-86.978v58.698h86.978v-58.698zM371.881 71.753h-62.223c-11.878 0-23.509 2.119-34.58 6.299l20.732 54.913c4.431-1.673 9.081-2.515 13.851-2.515h62.223v-58.698zM815.439 76.509l-18.071 55.846c16.263 5.262 27.619 20.808 27.619 37.813v0.269h58.698v-0.269c0-42.807-27.425-80.447-68.249-93.659zM269.954 173.454h-58.698v86.978h58.698v-86.978zM883.689 257.412h-58.698v86.976h58.698v-86.976zM883.689 431.363h-58.698v86.978h58.698v-86.978zM799.061 558.701c-4.398 1.651-9.036 2.486-13.777 2.486h-62.359v58.698h62.349c11.807 0 23.382-2.101 34.405-6.233l-20.628-54.961z" />
<glyph unicode="&#xe992;" glyph-name="list" data-tags="list" horiz-adv-x="976" d="M816.635 809.013h-718.824c-14.417 0-26.37-11.954-26.37-26.37v-52.745c0-14.417 11.954-26.37 26.37-26.37h718.824c14.417 0 26.37 11.954 26.37 26.37v52.745c0 14.42-11.954 26.37-26.37 26.37zM816.635 639.235h-558.12c-14.417 0-26.37-11.954-26.37-26.37v-52.745c0-14.417 11.954-26.37 26.37-26.37h558.12c14.417 0 26.37 11.954 26.37 26.37v52.745c0 14.417-11.954 26.37-26.37 26.37zM816.635 442.071h-558.12c-14.417 0-26.37-11.954-26.37-26.37v-52.745c0-14.417 11.954-26.37 26.37-26.37h558.12c14.417 0 26.37 11.954 26.37 26.37v52.745c0 14.42-11.954 26.37-26.37 26.37zM816.635 244.907h-558.12c-14.417 0-26.37-11.954-26.37-26.37v-52.745c0-14.417 11.954-26.37 26.37-26.37h558.12c14.417 0 26.37 11.954 26.37 26.37v52.745c0 14.42-11.954 26.37-26.37 26.37zM147.012 639.235h-49.207c-14.417 0-26.37-11.954-26.37-26.37v-52.745c0-14.417 11.954-26.37 26.37-26.37h49.207c14.417 0 26.37 11.954 26.37 26.37v52.745c0 14.417-11.954 26.37-26.37 26.37zM147.012 442.071h-49.207c-14.417 0-26.37-11.954-26.37-26.37v-52.745c0-14.417 11.954-26.37 26.37-26.37h49.207c14.417 0 26.37 11.954 26.37 26.37v52.745c0 14.42-11.954 26.37-26.37 26.37zM147.012 244.907h-49.207c-14.417 0-26.37-11.954-26.37-26.37v-52.745c0-14.417 11.954-26.37 26.37-26.37h49.207c14.417 0 26.37 11.954 26.37 26.37v52.745c0 14.42-11.954 26.37-26.37 26.37z" />
<glyph unicode="&#xe993;" glyph-name="radio-group" data-tags="radio-group" horiz-adv-x="864" d="M744.813 518.45h-414.758c-15.966 0-29.197-13.231-29.197-29.197v-58.389c0-15.966 13.231-29.197 29.197-29.197h414.758c15.966 0 29.197 13.231 29.197 29.197v58.389c0.001 15.966-13.231 29.197-29.197 29.197zM818.942 285.344h-488.887c-15.966 0-29.197-13.231-29.197-29.197v-58.389c0-15.966 13.231-29.197 29.197-29.197h488.887c15.966 0 29.197 13.231 29.197 29.197v58.389c0 15.964-13.231 29.197-29.197 29.197zM833.774 751.55h-503.718c-15.966 0-29.197-13.231-29.197-29.197v-58.389c0-15.966 13.231-29.197 29.197-29.197h503.718c15.966 0 29.197 13.231 29.197 29.197v58.389c0 15.966-13.231 29.197-29.197 29.197zM114.28 760.105c36.969 0 66.939-29.969 66.939-66.939s-29.969-66.939-66.939-66.939c-36.969 0-66.939 29.969-66.939 66.939s29.969 66.939 66.939 66.939zM114.28 790.511c-53.681 0-97.359-43.678-97.359-97.359s43.678-97.359 97.359-97.359c53.681 0 97.359 43.678 97.359 97.359s-43.678 97.359-97.359 97.359v0zM114.28 292.832c36.969 0 66.939-29.969 66.939-66.939s-29.969-66.939-66.939-66.939c-36.969 0-66.939 29.969-66.939 66.939s29.969 66.939 66.939 66.939zM114.28 323.244c-53.681 0-97.359-43.678-97.359-97.359s43.678-97.359 97.359-97.359c53.681 0 97.359 43.678 97.359 97.359s-43.678 97.359-97.359 97.359v0zM218.417 460.906c0-57.51-46.621-104.131-104.131-104.131s-104.131 46.621-104.131 104.131c0 57.51 46.621 104.131 104.131 104.131s104.131-46.621 104.131-104.131z" />
<glyph unicode="&#xe994;" glyph-name="blanks" data-tags="blanks" horiz-adv-x="880" d="M822.673 291.816h-161.719c-16.625 0-30.41-13.778-30.41-30.41v-60.81c0-16.625 13.778-30.41 30.41-30.41h161.719c16.625 0 30.41 13.778 30.41 30.41v60.81c-0.001 16.625-13.778 30.41-30.41 30.41zM339.623 519.144h-282.411c-16.625 0-30.41-13.778-30.41-30.41v-60.81c0-16.625 13.778-30.41 30.41-30.41h282.411c16.625 0 30.41 13.778 30.41 30.41v60.81c-0.001 16.627-13.778 30.41-30.41 30.41zM795.074 519.144c16.625 0 30.41-13.778 30.41-30.41v-60.81c0-16.625-13.778-30.41-30.41-30.41h-323.882c-16.625 0-30.408 13.778-30.408 30.41v60.81c0 16.625 13.778 30.41 30.408 30.41h323.882zM795.074 552.327h-323.882c-35.058 0-63.579-28.52-63.579-63.58v-60.81c0-35.058 28.52-63.58 63.579-63.58h323.882c35.058 0 63.58 28.52 63.58 63.58v60.81c-0.001 35.058-28.524 63.58-63.58 63.58v0zM535.175 291.816c16.625 0 30.408-13.778 30.408-30.41v-60.81c0-16.625-13.778-30.41-30.408-30.41h-268.58c-16.625 0-30.408 13.778-30.408 30.41v60.81c0 16.625 13.778 30.41 30.408 30.41h268.58zM535.175 324.991h-268.58c-35.058 0-63.579-28.52-63.579-63.58v-60.81c0-35.058 28.52-63.58 63.579-63.58h268.58c35.058 0 63.579 28.52 63.579 63.58v60.81c0 35.058-28.52 63.58-63.579 63.58v0zM522.742 746.478c16.625 0 30.408-13.778 30.408-30.41v-60.81c0-16.625-13.778-30.41-30.408-30.41h-144.168c-16.625 0-30.41 13.778-30.41 30.41v60.81c0 16.625 13.778 30.41 30.41 30.41h144.168zM522.742 779.659h-144.168c-35.058 0-63.58-28.52-63.58-63.58v-60.81c0-35.058 28.52-63.58 63.58-63.58h144.168c35.058 0 63.579 28.52 63.579 63.58v60.81c0 35.058-28.52 63.58-63.579 63.58v0zM57.216 624.854h180.329c16.625 0 30.41 13.778 30.41 30.41v60.81c0 16.625-13.778 30.41-30.41 30.41h-180.329c-16.625 0-30.41-13.778-30.41-30.41v-60.81c0-16.627 13.778-30.41 30.41-30.41zM656.125 624.854h167.979c16.625 0 30.41 13.778 30.41 30.41v60.81c0 16.625-13.778 30.41-30.41 30.41h-167.979c-16.625 0-30.41-13.778-30.41-30.41v-60.81c0-16.627 13.778-30.41 30.41-30.41zM57.216 170.185h80.161c16.625 0 30.41 13.778 30.41 30.41v60.81c0 16.625-13.778 30.41-30.41 30.41h-80.161c-16.625 0-30.41-13.778-30.41-30.41v-60.81c0-16.627 13.778-30.41 30.41-30.41z" />
<glyph unicode="&#xe995;" glyph-name="input" data-tags="input" horiz-adv-x="912" d="M815.282 584.317l-279.842-279.842h-139.919v139.919l279.831 279.842 139.919-139.919zM548.219 378.141l-79.039 79.039-30.615-30.615v-35.98h43.052v-43.052h35.98l30.615 30.6zM686.12 667.066c-2.015 0-4.034-0.669-5.721-2.355l-182.299-182.299c-1.686-1.686-2.355-3.704-2.355-5.721 0-4.371 3.028-7.398 7.398-7.398 2.015 0 4.039 0.669 5.721 2.355l182.299 182.299c1.686 1.686 2.355 3.704 2.355 5.721 0 4.371-3.028 7.398-7.398 7.398zM892.638 661.683l-55.832-55.832-139.919 139.919 55.832 55.497c7.732 8.068 18.831 12.781 30.264 12.781s22.531-4.701 30.615-12.781l79.039-78.701c7.732-8.068 12.442-19.173 12.442-30.615s-4.713-22.531-12.446-30.264zM913.092 125.311h-58.592v26.043h32.549v32.549h26.043zM766.603 125.311h-87.885v26.043h87.885v-26.043zM590.827 125.311h-87.885v26.043h87.885v-26.043zM415.052 125.311h-87.885v26.043h87.885v-26.043zM239.274 125.311h-87.885v26.043h87.885v-26.043zM63.494 125.311h-58.592v58.592h26.043v-32.549h32.549zM30.942 266.205h-26.043v82.301h26.043v-82.301zM30.942 430.825h-26.043v82.301h26.043v-82.301zM30.942 595.444h-26.043v82.301h26.043v-82.301zM30.942 760.065h-26.043v58.592h58.592v-26.043h-32.549zM590.827 792.618h-87.885v26.043h87.885v-26.043zM415.052 792.618h-87.885v26.043h87.885v-26.043zM239.274 792.618h-87.885v26.043h87.885v-26.043zM913.092 266.205h-26.043v82.301h26.043v-82.301zM913.092 430.825h-26.043v82.301h26.043v-82.301zM109.067 721.671h117.186v-30.642h-117.186v30.642zM109.067 252.927h117.186v-30.642h-117.186v30.642zM154.636 699.844h26.043v-462.236h-26.043v462.236z" />
<glyph unicode="&#xe996;" glyph-name="continuous-text" data-tags="continuous-text" horiz-adv-x="1152" d="M424.31 848.998v-130.621h-12.814c-7.602 30.129-16.018 51.786-25.267 64.947s-21.948 23.659-38.080 31.492c-9.022 4.264-24.8 6.404-47.336 6.404h-35.943v-372.274c0-24.685 1.359-40.099 4.095-46.264 2.723-6.18 8.059-11.571 16.018-16.191 7.949-4.627 18.806-6.937 32.563-6.937h16.018v-13.165h-252.687v13.165h16.018c13.999 0 25.267 2.487 33.811 7.478 6.168 3.308 11.038 9.021 14.589 17.081 2.61 5.689 3.913 20.639 3.913 44.839v372.274h-34.883c-32.508 0-56.107-6.88-70.823-20.639-20.639-19.218-33.694-46.624-39.147-82.214h-13.524v130.621h433.491zM1129.876 558.886v-130.621h-12.814c-7.602 30.129-16.018 51.786-25.267 64.947s-21.948 23.659-38.080 31.492c-9.022 4.264-24.8 6.404-47.336 6.404h-35.943v-372.274c0-24.685 1.359-40.099 4.095-46.264 2.723-6.18 8.059-11.564 16.018-16.191 7.949-4.627 18.806-6.937 32.563-6.937h16.018v-13.165h-252.687v13.165h16.018c13.999 0 25.267 2.487 33.811 7.478 6.168 3.308 11.038 9.021 14.589 17.081 2.61 5.689 3.913 20.639 3.913 44.839v372.275h-34.883c-32.508 0-56.107-6.88-70.823-20.639-20.639-19.218-33.694-46.624-39.147-82.214h-13.524v130.621h433.491zM488.98 498.546h-164.714v164.714h164.714v-164.714zM351.078 525.364h111.090v111.090h-111.090v-111.090zM795.419 211.261h-164.714v164.708h164.714v-164.708zM657.528 238.067h111.090v111.090h-111.090v-111.090zM644.121 280.209h-102.635v287.282h-65.903v26.813h92.726v-287.289h75.808z" />
<glyph unicode="&#xe997;" glyph-name="text" data-tags="text" horiz-adv-x="992" d="M694.153 683.035v-122.297h-11.998c-7.115 28.209-14.994 48.484-23.659 60.812s-20.552 22.158-35.652 29.493c-8.445 4-23.219 5.996-44.32 5.996h-33.655v-348.558c0-23.11 1.276-37.547 3.832-43.32 2.551-5.779 7.549-10.829 14.994-15.163 7.438-4.33 17.606-6.5 30.49-6.5h14.994v-12.332h-236.591v12.332h14.994c13.106 0 23.659 2.331 31.655 6.998 5.773 3.105 10.329 8.442 13.664 15.992 2.44 5.329 3.667 19.328 3.667 41.988v348.558h-32.659c-30.44 0-52.543-6.443-66.313-19.328-19.328-17.995-31.547-43.651-36.655-76.972h-12.663v122.297h405.873z" />
<glyph unicode="&#xe998;" glyph-name="uniE998" data-tags="uniE998" horiz-adv-x="880" d="M678.948 440.329c-106.908 0-193.643 86.739-193.643 193.643s86.739 193.643 193.643 193.643 193.643-86.739 193.643-193.643-86.739-193.643-193.643-193.643zM791.904 650.107c0 8.827-7.309 16.137-16.137 16.137h-64.548v64.548c0 8.827-7.309 16.137-16.137 16.137h-32.279c-8.827 0-16.137-7.309-16.137-16.137v-64.548h-64.548c-8.827 0-16.137-7.309-16.137-16.137v-32.279c0-8.827 7.309-16.137 16.137-16.137h64.548v-64.548c0-8.827 7.309-16.137 16.137-16.137h32.279c8.827 0 16.137 7.309 16.137 16.137v64.548h64.548c8.827 0 16.137 7.309 16.137 16.137v32.279zM180.95 560.193h249.977c-6.631 21.261-10.205 43.876-10.205 67.324 0 2.169 0.103 4.303 0.163 6.452h-239.941c-10.088 0-18.444-8.355-18.444-18.444v-36.889c0-10.085 8.357-18.444 18.444-18.444zM180.95 449.53h326.642c-25.37 19.85-46.376 44.982-61.378 73.779h-265.265c-10.088 0-18.444-8.355-18.444-18.444v-36.889c0-10.085 8.357-18.444 18.444-18.444zM660.499 301.975h-479.545c-10.088 0-18.444-8.355-18.444-18.444v-36.889c0-10.088 8.355-18.444 18.444-18.444h479.545c10.088 0 18.444 8.355 18.444 18.444v36.889c0 10.088-8.355 18.444-18.444 18.444zM180.95 338.862h368.884c10.088 0 18.444 8.355 18.444 18.444v36.889c0 10.088-8.355 18.444-18.444 18.444h-368.884c-10.088 0-18.444-8.355-18.444-18.444v-36.889c0-10.085 8.357-18.444 18.444-18.444z" />
<glyph unicode="&#xe999;" glyph-name="uniE999" data-tags="uniE999" horiz-adv-x="976" d="M175.285 564.751h259.075c-7.698 23.189-11.956 47.947-12.179 73.67h-246.892c-4.89 0-9.214-4.316-9.214-9.214v-55.252c0-4.89 4.316-9.214 9.214-9.214zM350.245 518.703v-55.252c0-4.89 4.316-9.214 9.214-9.214h151.115c-24.729 20.21-45.349 45.242-60.444 73.67h-90.674c-4.89 0-9.214-4.316-9.214-9.214zM175.285 343.747c2.304 0 4.89 0.863 6.625 2.591l82.881 82.881c1.732 1.732 2.591 4.315 2.591 6.625s-0.863 4.89-2.591 6.625l-82.881 82.881c-1.732 1.732-4.315 2.591-6.625 2.591-4.89 0-9.214-4.316-9.214-9.214v-165.753c0-4.89 4.316-9.214 9.214-9.214zM672.546 306.911h-497.259c-4.89 0-9.214-4.316-9.214-9.214v-55.252c0-4.89 4.316-9.214 9.214-9.214h497.259c4.89 0 9.214 4.316 9.214 9.214v55.252c0 4.889-4.316 9.214-9.214 9.214zM662.662 400.044c-31.771 0-62.095 6.173-89.857 17.367h-213.352c-4.89 0-9.214-4.316-9.214-9.214v-55.252c0-4.89 4.316-9.214 9.214-9.214h313.087c4.89 0 9.214 4.316 9.214 9.214v47.852c-6.3-0.495-12.669-0.754-19.092-0.754zM679.594 448.29c-106.908 0-193.643 86.739-193.643 193.643s86.739 193.643 193.643 193.643 193.643-86.739 193.643-193.643-86.739-193.643-193.643-193.643zM792.56 658.072c0 8.827-7.309 16.137-16.137 16.137h-64.548v64.548c0 8.827-7.309 16.137-16.137 16.137h-32.279c-8.827 0-16.137-7.309-16.137-16.137v-64.548h-64.548c-8.827 0-16.137-7.309-16.137-16.137v-32.279c0-8.827 7.309-16.137 16.137-16.137h64.548v-64.548c0-8.827 7.309-16.137 16.137-16.137h32.279c8.827 0 16.137 7.309 16.137 16.137v64.548h64.548c8.827 0 16.137 7.309 16.137 16.137v32.279z" />
</font>
</defs>
</svg>
